Save2Pc Ultimate Full Version | WordPress | Мара
We need more active people on chat! Click me!    Login or Register

NFO File

For Widowmaker.2oo2.m720p

Widowmaker.2oo2.m720p

www.imdb.com/title/tt0267626/
Rating: 6.7/10 - 53,150 votes
Drama - When Russia's first nuclear submarine malfunctions on its maiden voyage, 
the crew must race to save the ship and prevent a nuclear disaster.

K-19.The.Widowmaker.2002.720p.BluRay.H264.AAC-RARBG
Format                                   : MPEG-4
Format profile                           : Base Media
Codec ID                                 : isom
File size                                : 1.67 GiB
Duration                                 : 2h 18mn
Overall bit rate                         : 1 730 Kbps
Movie name                               : K-19.The.Widowmaker.2002.720p.BluRay.H264.AAC-RARBG
Encoded date                             : UTC 2018-03-14 07:48:19
Tagged date                              : UTC 2018-03-14 07:48:19
Writing application                      : Lavf57.83.100
Comment                                  : K-19.The.Widowmaker.2002.720p.BluRay.H264.AAC-RARBG

Video
ID                                       : 1
Format                                   : AVC
Format/Info                              : Advanced Video Codec
Format profile                           : [email protected]
Format settings, CABAC                   : Yes
Format settings, ReFrames                : 4 frames
Codec ID                                 : avc1
Codec ID/Info                            : Advanced Video Coding
Duration                                 : 2h 18mn
Bit rate                                 : 1 500 Kbps
Width                                    : 1 280 pixels
Height                                   : 544 pixels
Display aspect ratio                     : 2.35:1
Original display aspect ratio            : 2.35:1
Frame rate mode                          : Constant
Frame rate                               : 23.976 fps
Color space                              : YUV
Chroma subsampling                       : 4:2:0
Bit depth                                : 8 bits
Scan type                                : Progressive
Bits/(Pixel*Frame)                       : 0.090
Stream size                              : 1.45 GiB (87%)
Writing library                          : x264 core 152 r2851M ba24899
Encoded date                             : UTC 2018-03-14 07:48:19
Tagged date                              : UTC 2018-03-14 07:48:19

Audio
ID                                       : 2
Format                                   : AAC
Format/Info                              : Advanced Audio Codec
Format profile                           : LC
Codec ID                                 : 40
Duration                                 : 2h 18mn
Bit rate mode                            : Constant
Bit rate                                 : 224 Kbps
Channel(s)                               : 6 channels
Channel positions                        : Front: L C R, Side: L R, LFE
Sampling rate                            : 48.0 KHz
Compression mode                         : Lossy
Delay relative to video                  : 83ms
Stream size                              : 221 MiB (13%)
Language                                 : English
Encoded date                             : UTC 2018-03-14 07:48:19
Tagged date                              : UTC 2018-03-14 07:48:19